#TITLE:BLUE;
#SUBTITLE:Expi3nze;
#ARTIST:BIGBANG;
#TITLETRANSLIT:;
#SUBTITLETRANSLIT:;
#ARTISTTRANSLIT:;
#CREDIT:;
#BANNER:bn.png;
#BACKGROUND:bg.png;
#LYRICSPATH:;
#CDTITLE:cdtitle.png;
#MUSIC:BLUE.mp3;
#OFFSET:-0.140;
#SAMPLESTART:68.300;
#SAMPLELENGTH:24.000;
#SELECTABLE:YES;
#BPMS:0.000=125.000,208.000=62.500,226.000=125.000;
#STOPS:;
#BGCHANGES:;
// cache tags:
#FIRSTBEAT:0.000;
#LASTBEAT:303.000;
#SONGFILENAME:Songs/Expi3nze 4th Collection/BLUE (Bigbang)/BLUE.sm;
#HASMUSIC:1;
#HASBANNER:1;
#MUSICLENGTH:156.450;
// end cache tags

//---------------dance-single - ----------------
#NOTES:
     dance-single:
     :
     Hard:
     14:
     0.743,0.775,1.000,0.531,0.134,527.000,197.000,83.000,0.000,81.000:
0010
0010
1000
1020
0000
2000
0000
3000
,
1030
1000
0010
2000
0000
3020
0000
0000
,
1030
1000
0001
0200
0000
0320
0000
0000
,
0130
0100
0001
0200
0020
2300
0230
3020
,
2300
0000
0030
0000
0100
0000
0110
0000
0001
0000
0100
0000
0110
0000
0001
0010
,
3100
0000
0101
0101
0000
0100
0001
0200
,
0011
0000
0000
0000
0000
0000
0011
0000
0000
0000
1310
0000
1010
0000
0010
0010
,
1000
0000
0000
0000
0010
0000
1100
0010
1000
0000
0001
0000
0101
0000
0100
0100
,
0001
0000
0000
0000
0100
0000
0011
0000
1000
0000
0011
0000
0000
0000
1000
0100
,
0010
0000
1000
1010
0000
0100
0100
0002
,
1100
0000
0000
0000
0100
0000
1100
0000
0003
0000
1100
0000
1100
0000
0001
0001
,
2000
0200
3020
2300
0032
3200
0023
0300
,
2031
0001
0011
0200
0001
0000
3011
0302
,
0010
0000
0103
1010
1010
1001
1010
1010
,
1000
0010
0010
0101
0101
1001
1010
1010
,
1000
0011
1000
0011
0011
1000
0010
0012
,
1110
0000
0010
2000
0010
0000
0110
3020
,
1003
0000
1030
1010
1010
0011
1001
1001
,
1100
0010
0001
1010
1010
0011
1010
1010
,
0000
0010
0000
0010
0000
1000
0000
0001
,
1100
0000
0001
0000
0100
0000
0001
0000
1000
0000
1000
0000
0001
0000
1000
0010
,
1000
1010
1010
0000
0010
1000
0001
0100
,
0100
0000
0000
0000
0010
0000
0010
0000
1000
0000
0001
0000
0010
0000
0100
0001
,
1000
0000
1010
0000
1010
0000
0011
0011
,
1000
0000
0001
0001
1000
0001
0100
0100
,
0001
0000
1100
0000
1100
0000
0000
0000
0010
0000
0010
0000
1000
0000
0001
0010
,
0100
0000
0010
0010
1000
0010
0100
0001
,
0101
0000
0200
0000
0320
0000
2030
0010
,
3111
0000
1010
1000
0010
1000
0011
1000
,
0001
0001
0101
0000
1000
0001
1001
0100
,
0100
0000
0011
0000
0010
0010
1001
0101
,
0001
0000
1100
0000
0010
0010
1100
0001
,
2000
0000
3020
0000
0130
0100
0101
0001
,
0200
0000
0320
0000
2030
0000
3101
0101
,
0200
0000
0302
0000
0103
0100
0200
0002
,
0300
0000
1103
0000
0000
0000
1100
0000
1100
0000
0000
0010
0010
0000
0100
0001
,
2010
0200
0011
3320
0000
2030
0210
3020
,
1300
1030
1010
0000
1010
1010
0011
1010
,
1010
0020
1000
2000
0031
0201
3011
0002
,
1300
1000
1103
0001
1100
1100
0101
0101
,
0102
1010
1010
0010
1010
1000
0010
0020
,
2003
0001
0131
0000
0101
0001
0101
0102
,
3100
2000
0013
0200
3011
0020
0301
0000
,
1130
0000
1100
0000
1100
0000
1100
0000
1100
0000
0101
0000
0101
0000
0101
1000
,
0010
0000
0200
0000
0320
1000
1130
0001
,
1100
0000
0010
0010
1000
1010
2010
0020
,
0000
0000
0101
0000
3030
0101
0101
0010
,
1000
0010
0101
0010
1000
0100
0001
1000
,
1101
0000
1000
1000
0011
0100
1000
0010
,
0101
0000
0010
1000
1010
1010
2000
0020
,
0000
0000
0101
0000
3030
0011
0011
1000
,
0011
0000
1010
0000
0001
0001
0011
1000
,
0011
1000
0000
0010
0000
0100
0010
1000
0011
0100
0000
0010
0000
1000
0010
0100
,
1001
0010
0001
1000
0000
0010
1000
0010
1000
0000
0010
0001
1000
0100
0010
0001
,
1110
0001
0000
0100
0000
0100
0001
0010
0101
1000
0000
0010
0000
1000
0100
0010
,
1100
0000
0001
0000
0000
0000
0100
0000
0000
0000
0100
0000
0001
0000
1000
0000
0101
0000
0000
0000
0100
0000
0100
0000
0001
0000
0000
0000
0010
0000
0100
0010
,
1000
0000
0000
0000
2000
0200
3020
2300
,
0032
3200
0023
0300
2031
0001
0011
0200
,
0001
0000
3011
0302
0010
0000
0103
1010
,
1010
1001
1010
1010
1000
0010
0010
0101
,
0101
1001
1010
1010
1000
0011
1000
0011
,
0011
1000
0010
0012
1110
0000
0010
2000
,
0010
0000
0110
3020
1003
0000
1030
1010
,
1010
0011
1001
1001
1100
0010
0001
1010
,
1010
0011
1010
1010
1000
0010
1000
0011
,
0110
1000
0010
0012
1110
0000
0010
2000
,
0010
0000
0110
3020
1003
0000
1030
1010
,
1010
0011
1001
1001
1100
0010
0001
1100
,
1100
0011
1100
1100
0001
1000
1010
0011
,
1010
1000
0010
0012
1110
0000
0010
2000
,
0010
0000
0110
3020
1003
0000
1030
1010
,
1010
0011
1001
1001
1100
0010
0001
1010
,
1010
0011
1010
1010
1000
0001
1010
0100
,
1000
0010
0010
0020
0002
0000
0000
0000
,
0000
0000
0000
0000
,
0000
0000
0000
0033
,
0000
0000
0000
0000
;
